Skip to main content

New Mastersounds Live at Langerado Festival on 2008-03-07

Audio Preview

etree
New Mastersounds Live at Langerado Festival on 2008-03-07




New Mastersounds
March 7, 2008
Chickee Hut - Langerado Festival
Big Cypress Seminole Indian Reservation
Ochopee, Florida

*** THIS IS A 24-BIT FILESET NOT INTENDED FOR AUDIO CD ***

SOURCE: mbho 603a/ka500hn (hyper, DINa) > sound devices mp2 > busman t-mod edirol r4 (24/96)
PROCESSING: soundforge 10.0 (tracking, fades) > flac 1.2.1b

01
02
03
04
05
06
07
08
09
10
11
12


Collection NewMastersounds
Band/Artist New Mastersounds
Venue Langerado Festival
Location Big Cypress Seminole Indian Reservation Ochopee, Florida

Source mbho 603a/ka500hn (hyper, DINa) > sound devices mp2 > busman t-mod edirol r4 (24/96)
Lineage soundforge 10.0 (tracking, fades) > flac 1.2.1b
Taped by Peter W. King
Transferred by Peter W. King

Notes

length expanded size cdr WAVE problems fmt ratio filename
0:39.403 22696208 B cxx -- ---xx flac 0.5045 newmastersounds2008-03-07_mbho_t01.flac
3:23.456 117190472 B cxx -- ---xx flac 0.5656 newmastersounds2008-03-07_mbho_t02.flac
5:17.127 182665154 B cxx -- ---xx flac 0.5640 newmastersounds2008-03-07_mbho_t03.flac
5:25.390 187424918 B cxx -- ---xx flac 0.5589 newmastersounds2008-03-07_mbho_t04.flac
5:46.155 199385132 B cxx -- ---xx flac 0.5678 newmastersounds2008-03-07_mbho_t05.flac
5:00.565 173125676 B cxx -- ---xx flac 0.5550 newmastersounds2008-03-07_mbho_t06.flac
5:01.440 173629484 B cxx -- ---xx flac 0.5516 newmastersounds2008-03-07_mbho_t07.flac
2:37.056 90464300 B cxx -- ---xx flac 0.5637 newmastersounds2008-03-07_mbho_t08.flac
7:09.760 247541804 B cxx -- ---xx flac 0.5517 newmastersounds2008-03-07_mbho_t09.flac
8:23.637 290095148 B cxx -- ---xx flac 0.5555 newmastersounds2008-03-07_mbho_t10.flac
6:21.824 219930668 B cxx -- ---xx flac 0.5659 newmastersounds2008-03-07_mbho_t11.flac
6:00.619 207716396 B cxx -- ---xx flac 0.5484 newmastersounds2008-03-07_mbho_t12.flac
61:06.432 2111865360 B 0.5576 (12 files)

comment
Reviews

There are no reviews yet. Be the first one to write a review.
DOWNLOAD OPTIONS
Uploaded by
peterwking
on 7/8/2013
Views
83
SIMILAR ITEMS (based on metadata)
New Mastersounds
by New Mastersounds
etree
eye 98
favorite 1
comment 0
Source: mbho 603a/ka500hn (hyper, DINa) > sound devices mp2 > busman t-mod edirol r4 (24/96)
New Mastersounds
by New Mastersounds
etree
eye 553
favorite 1
comment 0
Source: FOB Schoeps mk4v (ortf) > kc5 > cmc6 > Sound Device 702 @ 24/48
New Mastersounds
etree
eye 711
favorite 1
comment 3
favoritefavoritefavoritefavoritefavorite ( 3 reviews )
Source: FM Signal > Magnum Dynalab FT-101A Analog FM Tuner > Sound Devices 722 (24/48)
New Mastersounds
by New Mastersounds
etree
eye 256
favorite 0
comment 0
Source: [16bit] Schoeps mk22> KCY> Sonosax SX-M2/LS> Apogee Mini-Me> SD 722 (@24bit/96kHz)
New Mastersounds
by New Mastersounds
etree
eye 100
favorite 0
comment 0
Source: [24bit] Schoeps mk22> KCY> Sonosax SX-M2/LS> Apogee Mini-Me> SD 722 (@24bit/96kHz)
New Mastersounds
by New Mastersounds
etree
eye 1,827
favorite 1
comment 0
Source: SBD>HDP2 Oade Mod.
New Mastersounds
by New Mastersounds
etree
eye 174
favorite 0
comment 0
Source: Schoeps CCM4V'S(din)>Lunatec V2>Benchmark AD2K>Sound Devices 722 (24/48)
New Mastersounds
by New Mastersounds
etree
eye 1,434
favorite 2
comment 4
favoritefavoritefavoritefavoritefavorite ( 4 reviews )
New Mastersounds
by New Mastersounds
etree
eye 556
favorite 0
comment 0
Source: SBD + onstage mic Matrix
New Mastersounds
by New Mastersounds
etree
eye 707
favorite 0
comment 1
favoritefavoritefavoritefavorite ( 1 reviews )
Source: Neumann TLM-170R (Hyper-Card)>Lunatec V3 (Analog In)>Sound Devices 722 (24/48)